<?xml version="1.0" standalone="no"?>
<!DOCTYPE svg PUBLIC "-//W3C//DTD SVG 1.1//EN" "http://www.w3.org/Graphics/SVG/1.1/DTD/svg11.dtd" >
<svg xmlns="http://www.w3.org/2000/svg">
<metadata>Generated by IcoMoon</metadata>
<defs>
<font id="icon-font" horiz-adv-x="1024">
<font-face units-per-em="1024" ascent="960" descent="-64" />
<missing-glyph horiz-adv-x="1024" />
<glyph unicode="&#x20;" horiz-adv-x="512" d="" />
<glyph unicode="&#xe900;" glyph-name="youtube" horiz-adv-x="967" d="M652.448 628.864c29.33 3.581 54.724 18.104 72.389 39.295l0.145 0.179v-41.448h60.019v242.229h-59.974v-161.8c-13.816-16.283-29.606-30.593-41.941-30.593-0.655-0.090-1.411-0.142-2.179-0.142-7.557 0-13.947 4.996-16.046 11.866l-0.031 0.119v181.133h-60.737v-176.692c-0.042-1.091-0.066-2.372-0.066-3.658 0-13.799 2.744-26.957 7.715-38.959l-0.248 0.676c7.405-13.527 21.54-22.546 37.781-22.546 1.117 0 2.224 0.043 3.319 0.126l-0.146-0.009zM272.463 628.64h60.198v120.128l91.823 211.233h-73.566l-48.356-121.384-48.356 120.89h-72.041c12.336-30.593 72.041-162.338 90.298-211.233zM393.398 771.6v-43.422c-0.207-2.413-0.326-5.222-0.326-8.059 0-22.646 7.539-43.531 20.243-60.283l-0.18 0.248c17.264-19.126 42.143-31.094 69.818-31.094 0.434 0 0.868 0.003 1.301 0.009l-0.066-0.001c0.426-0.007 0.928-0.011 1.431-0.011 27.895 0 53.011 11.898 70.55 30.897l0.060 0.065c12.222 16.621 19.559 37.493 19.559 60.079 0 2.821-0.114 5.615-0.339 8.378l0.024-0.363v42.435c0.092 1.64 0.144 3.558 0.144 5.489 0 23.607-7.84 45.383-21.059 62.866l0.19-0.262c-16.152 17.732-39.336 28.816-65.11 28.816-1.823 0-3.633-0.055-5.428-0.165l0.247 0.012c-2.031 0.175-4.396 0.275-6.783 0.275-25.224 0-47.843-11.151-63.197-28.793l-0.086-0.101c-12.714-17.557-20.338-39.526-20.338-63.275 0-1.695 0.039-3.38 0.116-5.056l-0.009 0.238zM453.058 790.754c0 16.623 13.476 30.099 30.099 30.099s30.099-13.476 30.099-30.099v0-84.915c0-16.623-13.476-30.099-30.099-30.099s-30.099 13.476-30.099 30.099v0zM591.218 272.608c-2.015 0.731-4.341 1.154-6.766 1.154-0.92 0-1.825-0.061-2.713-0.179l0.104 0.011c-6.816-0.579-13.033-2.706-18.439-6.025l0.182 0.104c-3.961-1.747-7.366-3.727-10.519-6.031l0.157 0.109-8.388-6.908v-131.746c2.403-2.504 5.166-4.638 8.211-6.325l0.177-0.090c8.107-4.67 17.643-7.863 27.81-8.944l0.316-0.027c0.467-0.039 1.011-0.061 1.56-0.061 5.086 0 9.729 1.893 13.264 5.014l-0.022-0.019c1.292 1.218 2.303 2.719 2.934 4.405l0.026 0.080c1.775 3.824 3.316 8.314 4.394 12.983l0.092 0.474c0.236 3.027 0.37 6.556 0.37 10.115s-0.134 7.088-0.398 10.58l0.028-0.465v82.268c0.236 3.027 0.37 6.556 0.37 10.115s-0.134 7.088-0.398 10.58l0.028-0.465c-0.573 8.578-5.565 15.871-12.7 19.674l-0.13 0.063zM956.4 395.472c-5.15 35.679-19.195 67.375-39.799 93.689l0.325-0.43c-24.69 24.109-58.492 38.981-95.767 38.981-0.096 0-0.191 0-0.287 0h0.015c-135.2 9.869-337.55 9.869-337.55 9.869s-202.351 0-337.55-9.869c-0.088 0-0.191 0-0.295 0-37.569 0-71.619-15.069-96.435-39.492l0.018 0.018c-20.145-26.012-34.198-57.721-39.469-92.317l-0.14-1.12c-6.060-34.055-9.524-73.26-9.524-113.274 0-3.151 0.021-6.297 0.064-9.437l-0.005 0.476v-71.054c-0.043-2.848-0.068-6.21-0.068-9.577 0-39.843 3.435-78.883 10.024-116.841l-0.582 4.048c5.147-35.845 19.191-67.705 39.808-94.197l-0.334 0.445c28.619-24.205 65.826-39.058 106.491-39.474l0.089-0.001c78.455-7.401 328.175-9.869 328.175-9.869s202.351 0 338.044 9.869c37.495 0.071 71.459 15.126 96.238 39.493l-0.019-0.019c20.070 25.972 34.074 57.617 39.334 92.138l0.14 1.121c6.008 33.91 9.443 72.951 9.443 112.793 0 3.367-0.025 6.729-0.073 10.085l0.006-0.507v70.56c0.029 2.279 0.046 4.972 0.046 7.668 0 40.55-3.787 80.215-11.028 118.661l0.62-3.958zM211.771 53.436h-59.705v303.010h-60.692v60.198h181.088v-60.198h-60.692zM453.103 53.436h-60.198v42.928c-17.731-22.902-43.714-38.677-73.419-42.86l-0.596-0.069c-0.876-0.068-1.896-0.107-2.926-0.107-16.218 0-30.18 9.66-36.446 23.54l-0.102 0.252c-4.45 12.081-7.025 26.032-7.025 40.585 0 1.865 0.042 3.721 0.126 5.566l-0.009-0.262v203.338h60.647v-208.272c1.302-6.826 7.223-11.915 14.333-11.915 0.513 0 1.020 0.026 1.519 0.078l-0.062-0.005c18.626 4.331 34.151 15.351 44.244 30.333l0.165 0.259v189.522h60.692zM664.335 140.28c0.025-1.102 0.039-2.4 0.039-3.702 0-16.774-2.357-32.998-6.757-48.358l0.303 1.237c-6.373-20.746-25.364-35.568-47.817-35.568-0.71 0-1.417 0.015-2.12 0.044l0.101-0.003c-27.372 3.133-50.768 17.905-65.425 39.166l-0.201 0.308v-39.474h-58.763v362.715h59.077v-131.746c22.429 26.152 34.54 41.941 64.146 41.448 0.023 0 0.049 0 0.076 0 23.115 0 42.614-15.486 48.686-36.65l0.088-0.357c5.19-17.986 8.175-38.645 8.175-60.001 0-1.757-0.020-3.509-0.060-5.256l0.005 0.26zM875.568 174.326h-120.442v-54.771c2.882-14.195 15.26-24.729 30.099-24.729s27.217 10.534 30.066 24.532l0.034 0.197v24.043h60.692c0-15.296-1.974-28.125-1.974-33.060-2.719-11.027-7.682-20.638-14.404-28.736l0.094 0.117c-16.714-17.737-40.361-28.782-66.588-28.782-1.918 0-3.823 0.059-5.711 0.176l0.259-0.013c-1.608-0.097-3.489-0.152-5.382-0.152-25.974 0-49.514 10.418-66.671 27.303l0.012-0.012c-12.986 14.754-20.911 34.235-20.911 55.568 0 1.976 0.068 3.937 0.202 5.879l-0.014-0.262v92.944c-0.139 1.871-0.219 4.053-0.219 6.254 0 21.688 7.723 41.572 20.568 57.053l-0.119-0.147c16.925 17.135 40.42 27.749 66.393 27.749 1.639 0 3.269-0.042 4.887-0.126l-0.227 0.009c1.152 0.051 2.502 0.080 3.86 0.080 25.908 0 49.341-10.601 66.196-27.701l0.011-0.011c12.119-15.302 19.442-34.884 19.442-56.176 0-2.11-0.072-4.202-0.213-6.276l0.015 0.28zM785.001 281.445c-0.598 0.046-1.295 0.072-1.997 0.072-14.601 0-26.561-11.306-27.603-25.64l-0.005-0.090v-39.474h62.172v39.429c-0.666 15.128-13.092 27.14-28.324 27.14-0.104 0-0.207-0.001-0.311-0.002h0.016c-0.17 0.012-0.367 0.019-0.567 0.019-1.036 0-2.029-0.188-2.945-0.532l0.058 0.019z" />
<glyph unicode="&#xe901;" glyph-name="linkedin" horiz-adv-x="1017" d="M135.257 960v0c-74.829-0.474-135.306-61.244-135.306-136.139 0-39.483 16.808-75.040 43.658-99.908l0.089-0.081c22.623-21.938 53.514-35.462 87.564-35.462 1.039 0 2.074 0.013 3.107 0.038l-0.153-0.003c1.998-0.116 4.334-0.182 6.686-0.182 33.769 0 64.361 13.599 86.6 35.619l-0.010-0.010c27.109 25.343 44.293 61.010 45.256 100.697l0.003 0.174c-1.311 36.024-16.065 68.368-39.362 92.374l0.034-0.035c-24.387 26.425-59.196 42.918-97.857 42.918-0.108 0-0.217 0-0.325 0h0.017zM1013.804 128.065h3.173v266.404c0.003 0.515 0.004 1.124 0.004 1.733 0 25.146-2.444 49.721-7.108 73.501l0.393-2.403c-11.772 82.677-72.416 148.485-151.307 167.747l-1.377 0.284c-27.546 6.652-59.172 10.467-91.689 10.467-2.515 0-5.024-0.023-7.528-0.068l0.376 0.005c-0.976 0.016-2.127 0.025-3.28 0.025-50.45 0-96.883-17.201-133.754-46.059l-13.309-10.045-20.445-16.543-2.341 24.971v23.462h-225.463v-645.8c-0.217-1.818-0.34-3.924-0.34-6.059 0-8.686 2.047-16.893 5.684-24.167l-0.142 0.313c3.537-4.318 11.029-6.295 25.595-6.295h186.135c0.547-0.055 1.182-0.087 1.825-0.087 4.896 0 9.365 1.828 12.761 4.838l-0.020-0.017c2.711 3.622 4.341 8.191 4.341 13.14 0 0.355-0.008 0.709-0.025 1.060l0.002-0.050c0.187 2.119 0.294 4.585 0.294 7.075s-0.107 4.956-0.316 7.392l0.022-0.317v330.599c-0.004 0.438-0.006 0.956-0.006 1.475 0 28.058 6.392 54.622 17.799 78.318l-0.47-1.083c12.569 29.475 41.299 49.76 74.767 49.76 7.13 0 14.046-0.921 20.634-2.65l-0.564 0.126c39.329-10.404 62.947-43.282 70.074-101.131 1.51-10.592 2.372-22.824 2.372-35.258 0-1.431-0.011-2.86-0.034-4.286l0.003 0.215v-352.605h236.128v172.349zM259.381 255.155v358.535c0.002 0.066 0.003 0.143 0.003 0.22 0 2.291-1.074 4.332-2.745 5.647l-0.015 0.012c-1.458 1.628-3.538 2.672-5.864 2.757h-227.871v-682.008h236.128v314.837z" />
<glyph unicode="&#xe902;" glyph-name="facebook" horiz-adv-x="478" d="M317.7-64v512.042h141.344l18.779 176.439h-160.123v88.345c0 45.904 4.173 70.651 70.484 70.651h88.637v176.523h-141.385c-169.846 0-229.522-85.591-229.522-229.522v-105.997h-105.914v-176.481h105.872v-512.042z" />
<glyph unicode="&#xe903;" glyph-name="play" horiz-adv-x="856" d="M0 960v-1024l856.436 512-856.436 512z" />
<glyph unicode="&#xe904;" glyph-name="chevron-right" horiz-adv-x="1071" d="M789.868 960l280.944-512-280.944-512h-260.314l289.646 512-289.646 512zM263.239 960l277.943-512-277.943-512h-263.314l289.721 512-289.646 512z" />
<glyph unicode="&#xe905;" glyph-name="arrow-left" horiz-adv-x="1412" d="M511.075-63.98l75.055 75.055-383.911 383.911h1210.217v106.141h-1208.299l383.83 383.83-75.052 75.055-512.914-512.915 511.075-511.078z" />
<glyph unicode="&#xe906;" glyph-name="arrow-right" horiz-adv-x="1412" d="M901.36 960.012l-75.055-75.055 383.911-383.911h-1210.216v-106.141h1208.299l-383.83-383.83 75.052-75.055 512.915 512.914-511.075 511.078z" />
<glyph unicode="&#xe907;" glyph-name="chevron-left" horiz-adv-x="1071" d="M280.944-64l-280.944 512 280.944 512h260.314l-289.646-512 289.646-512zM807.572-64l-277.943 512 277.943 512h263.314l-289.721-512 289.646-512z" />
<glyph unicode="&#xe908;" glyph-name="circle-arrow" horiz-adv-x="955" d="M98.736 110.738l-3.393 3.987-8.991-73.203c-1.431-11.807-7.451-21.985-16.193-28.855l-0.093-0.070c-7.358-5.945-16.826-9.544-27.134-9.544-23.939 0-43.345 19.406-43.345 43.345 0 2.11 0.151 4.184 0.442 6.213l-0.027-0.232 23.666 189.583v0.594c0.176 1.345 0.414 2.524 0.723 3.672l-0.045-0.195c4.657 19.199 21.697 33.233 42.015 33.233 3.542 0 6.984-0.426 10.278-1.231l-0.296 0.061q95.173-21.461 190.176-43.685c11.424-2.591 20.895-9.513 26.786-18.908l0.104-0.177c4.087-6.516 6.511-14.435 6.511-22.92 0-3.422-0.394-6.752-1.14-9.947l0.058 0.295c-2.613-11.39-9.53-20.828-18.908-26.701l-0.178-0.104c-6.497-4.136-14.415-6.592-22.906-6.592-3.397 0-6.703 0.393-9.873 1.136l0.292-0.058c-28.077 6.362-56.154 12.893-84.146 19.34 7.831-9.132 15.7-17.43 23.959-25.323l0.132-0.125c59.088-57.78 135.088-98.494 219.889-114.032l2.605-0.396c21.593-4.005 46.438-6.295 71.818-6.295 18.671 0 37.053 1.239 55.068 3.641l-2.109-0.23c44.093 5.598 84.149 17.504 121.124 34.882l-2.455-1.037q21.376 10.094 40.97 21.545c13.233 7.889 26.041 16.286 38.256 25.447 27.232 19.961 51.037 41.936 72.154 66.304l0.456 0.538c20.252 23.383 38.26 49.677 53.114 77.89l1.089 2.269 4.75 9.331 84.824-22.818-6.786-14.081c-19.261-39.573-41.597-73.681-67.626-104.575l0.615 0.749c-27.088-32.13-57.179-60.309-90.26-84.664l-1.435-1.009c-14.25-10.433-29.349-20.358-45.127-29.689s-31.639-17.559-48.689-25.447c-41.895-20.206-90.513-35.092-141.637-42.123l-2.565-0.289c-19.431-2.693-41.881-4.23-64.691-4.23-30.466 0-60.292 2.743-89.243 7.995l3.031-0.456c-105.262 19.178-196.776 68.259-267.962 138.009l0.086-0.084c-10.179 9.84-19.17 19.594-27.483 29.264zM856.726 785.262l3.393-3.987 8.482 73.203c2.351 21.929 20.755 38.856 43.112 38.856 23.939 0 43.345-19.406 43.345-43.345 0-2.187-0.162-4.336-0.474-6.436l0.029 0.237-23.242-189.752v-0.594c0-1.103 0-2.29-0.594-3.478v0c-4.692-19.152-21.709-33.14-41.993-33.14-3.397 0-6.702 0.392-9.872 1.134l0.292-0.058c-63.364 14.335-127.237 28.84-190.176 43.685-11.39 2.613-20.828 9.53-26.701 18.908l-0.104 0.178c-4.138 6.514-6.595 14.45-6.595 22.959 0 3.408 0.394 6.725 1.139 9.906l-0.058-0.293c2.613 11.39 9.53 20.828 18.908 26.701l0.178 0.104c6.514 4.138 14.45 6.595 22.959 6.595 3.408 0 6.725-0.394 9.906-1.139l-0.293 0.058c28.077-6.362 56.069-12.893 84.146-19.34-7.125 8.482-15.014 16.965-24.090 25.871-29.573 28.901-63.452 53.577-100.545 72.937l-2.347 1.115c-34.554 18.31-74.64 32.403-116.943 40.155l-2.574 0.392c-21.578 4.005-46.406 6.295-71.769 6.295-18.659 0-37.028-1.24-55.030-3.641l2.107 0.23c-44.19-5.9-84.243-18.116-121.165-35.819l2.411 1.041q-21.461-10.009-40.97-21.545c-13.317-7.889-26.041-16.286-38.341-25.447-27.216-19.933-50.996-41.91-72.064-66.296l-0.461-0.546c-20.325-23.365-38.339-49.665-53.134-77.918l-1.069-2.241-4.835-9.331-85.249 23.157 6.786 14.081c19.286 39.57 41.62 73.676 67.633 104.583l-0.621-0.758c27.108 32.109 57.196 60.285 90.258 84.661l1.437 1.011q21.545 15.693 45.127 29.689c15.353 8.991 31.639 17.559 48.689 25.447 41.895 20.206 90.513 35.092 141.637 42.123l2.565 0.289c19.489 2.709 42.006 4.256 64.885 4.256 30.518 0 60.392-2.752 89.39-8.021l-3.033 0.457c54.134-9.754 102.506-26.681 146.985-50.020l-2.784 1.331c47.435-24.695 88.182-54.426 123.851-89.325l-0.093 0.090c10.094-9.84 19.17-19.594 27.483-29.264z" />
<glyph unicode="&#xe909;" glyph-name="upload" horiz-adv-x="1041" d="M716.436 561.886c11.882 12.228 28.483 19.816 46.857 19.816 36.068 0 65.308-29.239 65.308-65.308 0-18.795-7.939-35.735-20.647-47.651l-0.036-0.033-248.101-244.628c-11.791-11.589-27.973-18.743-45.825-18.743s-34.034 7.154-45.835 18.752l0.009-0.009-244.544 241.494c-12.061 11.859-19.535 28.351-19.535 46.588 0 36.074 29.244 65.319 65.319 65.319 17.837 0 34.004-7.15 45.792-18.74l-0.009 0.009 134.596-133.411 1.355 469.859c1.562 34.873 30.214 62.554 65.331 62.554 35.504 0 64.4-28.295 65.367-63.566l0.002-0.089-1.271-465.878 135.867 133.665zM0-1.234l0.847 255.64c-0.014 0.502-0.022 1.092-0.022 1.684 0 36.115 29.277 65.392 65.392 65.392s65.392-29.277 65.392-65.392c0-1.009-0.023-2.013-0.068-3.012l0.005 0.142-0.593-186.351q389.643-0.762 778.525 0l0.593 187.368c0.336 35.861 29.484 64.802 65.392 64.802 36.117 0 65.395-29.278 65.395-65.395 0-0.208-0.001-0.417-0.003-0.625v0.032l-0.847-254.115h-0.762c-1.619-34.588-29.913-62.054-64.686-62.343h-0.028q-455.121-0.847-909.563 0c-34.871 0.101-63.298 27.552-64.963 62.024l-0.006 0.149z" />
<glyph unicode="&#xe90a;" glyph-name="twitter" d="M1023.985 765.558c-37.644-16.835-78.201-28.023-120.548-33.009 43.386 25.983 76.567 67.157 92.406 116.18-40.55-23.983-85.62-41.573-133.374-50.983-38.397 40.799-92.934 66.162-153.351 66.162-116.005 0-209.928-93.976-209.928-209.91 0-16.361 1.816-32.37 5.37-47.807-174.551 8.847-329.3 92.409-432.891 219.547-18.583-32.056-28.416-68.506-28.416-105.576v-0.025c0-72.794 36.959-137.177 93.355-174.723-34.413 1.023-66.782 10.62-95.204 26.17v-2.623c0-101.8 72.358-186.744 168.506-205.944-17.615-4.783-36.21-7.425-55.367-7.425-13.569 0-26.643 1.398-39.644 3.76 26.855-83.371 104.371-144.148 196.169-145.92-71.977-56.39-162.38-89.967-260.933-89.967-17.010 0-33.58 1.041-50.129 3.023 93.162-59.775 203.523-94.393 322.081-94.393 386.258 0 597.661 320.097 597.661 597.637 0 9.222-0.206 18.159-0.587 27.193 41.024 29.347 76.591 66.383 104.746 108.543l0.095 0.095-0.018-0.012z" />
<glyph unicode="&#xe90b;" glyph-name="arrow-down" d="M936.792 534.304l-423.856-423.856-425.686 425.689-87.235-87.235 512.921-512.917 511.088 511.087-87.232 87.232z" />
<glyph unicode="&#xe90c;" glyph-name="arrow-forward" d="M213.758 872.777l423.856-423.856-425.69-425.686 87.235-87.235 512.917 512.921-511.088 511.088-87.231-87.232z" />
<glyph unicode="&#xe90d;" glyph-name="arrow-back" d="M810.242 23.231l-423.856 423.857 425.69 425.686-87.235 87.235-512.917-512.921 511.088-511.088 87.231 87.231z" />
<glyph unicode="&#xe90e;" glyph-name="arrow-up" d="M87.227-62.182l423.856 423.856 425.686-425.689 87.235 87.235-512.921 512.917-511.088-511.088 87.232-87.231z" />
<glyph unicode="&#xe90f;" glyph-name="cancel" d="M1023.968 898.037l-61.947 61.946-450.030-450.030-450.068 450.065-61.944-61.947 450.065-450.065-450.063-450.063 61.944-61.944 450.062 450.062 450.030-450.030 61.947 61.947-450.030 450.028 450.033 450.030z" />
<glyph unicode="&#xe910;" glyph-name="burger" d="M0 752.432h1024v-55.351h-1024v55.351zM0 475.676h1024v-55.351h-1024v55.351zM0 198.919h1024v-55.351h-1024v55.351z" />
<glyph unicode="&#xe911;" glyph-name="bullet" d="M434.263 960.008c-101.91-0.078-195.21-57.168-241.665-147.874l-162.883-318.991c-68.064-133.289-15.189-296.518 118.099-364.582l0.010-0.006 318.991-162.883c133.296-68.029 296.502-15.158 364.587 118.109l162.884 318.991c68.064 133.289 15.189 296.518-118.099 364.582-0.003 0.002-0.007 0.004-0.010 0.006l-318.991 162.883c-38.036 19.521-80.168 29.724-122.922 29.765z" />
<glyph unicode="&#xe912;" glyph-name="x" d="M121.24 837.12l300.28-437.76-293.92-340.48h65.12l257.56 298.56 204.8-298.56h246.040l-313.72 457.32 276.84 320.92h-64.92l-240.72-278.88-191.32 278.88h-246.040zM199 796.16h146.72l477.64-696.32h-146.72l-477.64 696.32z" />
<glyph unicode="&#xe917;" glyph-name="testimony" horiz-adv-x="1405" d="M46.345 588.685c-0.191 12.666-10.484 22.865-23.168 22.905h-0.368c-12.643-0.218-22.809-10.518-22.809-23.193 0-0.087 0-0.173 0.001-0.259v0.013l2.429-225.893c0.191-12.666 10.484-22.865 23.168-22.905h0.368c12.643 0.218 22.809 10.518 22.809 23.193 0 0.087 0 0.173-0.001 0.259v-0.013zM1094.974 937.022c-0.079 7.883-4.082 14.814-10.146 18.943l-0.080 0.052c-3.637 2.52-8.143 4.026-13.001 4.026-3.032 0-5.927-0.587-8.577-1.652l0.155 0.055-612.705-241.924-305.126-2.818c-12.717-0.123-22.979-10.461-22.979-23.196 0-0.060 0-0.12 0.001-0.18v0.009l3.813-428.42c0.11-12.714 10.442-22.978 23.171-22.978 0 0 0.001 0 0.001 0v0l32.985 0.291 56.255-284.601c2.212-10.719 11.573-18.663 22.789-18.663 1.466 0 2.901 0.136 4.292 0.395l-0.144-0.022 140.467 26.087c10.851 2.104 18.931 11.529 18.931 22.841 0 1.37-0.118 2.712-0.346 4.016l0.020-0.139-33.447 194.802c-2.023 10.988-11.528 19.203-22.952 19.203-1.33 0-2.634-0.111-3.903-0.325l0.137 0.019c-10.966-1.947-19.186-11.406-19.186-22.786 0-1.389 0.123-2.75 0.357-4.072l-0.021 0.14 29.56-172.286-95.458-17.683-50.158 253.535 225.504 2.016 1.36-0.462 615.717-206.996c2.176-0.73 4.681-1.152 7.285-1.152 5.139 0 9.895 1.642 13.772 4.431l-0.070-0.048c5.829 4.276 9.571 11.1 9.571 18.797 0 0.052 0 0.104-0.001 0.157v-0.008zM172.48 285.527l-3.522 382.026 263.056 2.429 3.401-382.075zM481.954 281.592l-3.522 395.92 570.514 225.262 7.287-814.332zM1234.761 732.31c4.28-5.122 10.671-8.357 17.817-8.357 5.646 0 10.82 2.019 14.84 5.375l-0.037-0.030 106.291 88.317c5.126 4.281 8.363 10.674 8.363 17.823 0 12.074-9.234 21.991-21.025 23.074l-0.091 0.007c-0.704 0-1.409 0-2.113 0-0.010 0-0.022 0-0.034 0-5.6 0-10.728-2.020-14.695-5.372l0.034 0.028-106.315-88.317c-5.098-4.289-8.316-10.672-8.316-17.806 0-5.616 1.993-10.766 5.311-14.781l-0.031 0.039zM1231.579 506.781c0.041-12.776 10.394-23.12 23.17-23.148h0.003l126.986 0.194c12.798 0 23.172 10.375 23.172 23.172s-10.375 23.172-23.172 23.172v0l-126.962-0.194c-12.811 0-23.197-10.385-23.197-23.197v0zM1384.919 175.495c-0.906 6.281-4.239 11.648-9 15.211l-0.060 0.043-104.98 78.723c-3.8 2.881-8.608 4.615-13.821 4.615-0.009 0-0.017 0-0.026 0h0.001c-1.176-0.002-2.329-0.090-3.456-0.259l0.129 0.016c-11.301-1.658-19.879-11.285-19.879-22.916 0-7.549 3.614-14.254 9.206-18.48l0.058-0.042 104.98-78.723c3.827-2.899 8.668-4.644 13.916-4.644 12.798 0 23.172 10.375 23.172 23.172 0 1.176-0.088 2.331-0.256 3.459l0.016-0.127z" />
<glyph unicode="&#xe918;" glyph-name="video" horiz-adv-x="975" d="M972.129 594.694h-802.79l761.289 203.999c7.14 1.964 12.298 8.398 12.298 16.037 0 1.526-0.206 3.005-0.592 4.408l0.027-0.117-24.918 93.091c-7.674 27.845-32.773 47.958-62.57 47.958-5.942 0-11.697-0.8-17.164-2.298l0.455 0.106-790.212-211.814c-27.825-7.678-47.921-32.764-47.921-62.543 0-5.771 0.755-11.365 2.171-16.69l-0.102 0.452 0.368-0.909v-0.498l24.896-93.091v-629.035c0-4.28 3.47-7.75 7.75-7.75v0l928.333 0.606c0.455 0.152 0.844 0.303 1.256 0.476l1.732 0.758 1.429 0.888 0.866 0.649 0.455 0.368 0.693 0.628 1.45 1.624c0.26 0.303 0.455 0.606 0.671 0.888l0.195 0.281 0.628 1.018 0.26 0.476 0.433 0.888 0.238 0.541 0.238 0.606 0.173 0.693c0 0.216 0.13 0.433 0.173 0.649v0.52l0.13 0.714c0 0.195 0 0.368 0 0.563v642.414c0 0.001 0 0.002 0 0.002 0 1.313-1.034 2.384-2.333 2.444h-0.005zM762.674 561.463l-55.573-111.125h-106.816l55.595 111.168zM618.318 561.463l-55.573-111.125h-179.471l55.595 111.168h179.406zM401.828 561.463l-55.681-111.125h-106.773l55.595 111.168zM740.484 897.239l106.405 28.49c2.44 0.674 5.242 1.061 8.134 1.061 0.002 0 0.004 0 0.006 0v0c14.409-0.072 26.531-9.78 30.255-23.007l0.054-0.222 20.61-77.049-190.512-51.027 25.048 121.754zM600.999 859.83l103.569 27.819-24.896-121.711-103.569-27.776 24.896 121.733zM391.934 803.737l173.192 46.502-24.896-121.841-173.322-46.416 25.026 121.754zM252.406 766.414l103.569 27.776-24.896-121.733-103.677-27.797 24.896 121.733zM37.496 699.302c4.198 7.155 10.942 12.432 18.96 14.626l0.221 0.052 159.878 42.865-24.896-121.733-136.779-36.695-20.61 76.941c-0.669 2.423-1.053 5.204-1.053 8.076 0 5.794 1.564 11.223 4.294 15.887l-0.081-0.149zM60.228 561.354h197.634l-55.551-111.016h-142.061zM941.82-31.007h-881.116v448.135h881.116v-448.135zM941.344 450.338h-196.682l55.595 111.168h141.563l-0.476-111.168zM609.919 229.496l-162.758 81.379c-5.298 2.706-11.557 4.291-18.185 4.291-22.466 0-40.679-18.212-40.679-40.679 0-0.002 0-0.003 0-0.005v0-162.758c0.025-22.456 18.222-40.654 40.676-40.679h0.002c6.633 0.022 12.888 1.619 18.417 4.437l-0.232-0.107 162.736 81.379c13.46 6.821 22.524 20.553 22.524 36.403s-9.065 29.582-22.293 36.296l-0.232 0.107zM421.572 99.602v186.875l186.853-93.437z" />
<glyph unicode="&#xe919;" glyph-name="partner" horiz-adv-x="1230" d="M619.462 960c-10.283 0-18.62-8.336-18.62-18.62v0-142.144c0-10.283 8.336-18.62 18.62-18.62s18.62 8.336 18.62 18.62v142.144c0 10.283-8.336 18.62-18.62 18.62v0zM439.757 786.072c3.347-3.242 7.915-5.24 12.949-5.24 10.283 0 18.62 8.336 18.62 18.62 0 5.035-1.998 9.603-5.245 12.954l-100.517 100.499c-3.389 3.499-8.131 5.67-13.379 5.67-10.283 0-18.62-8.336-18.62-18.62 0-5.249 2.172-9.99 5.665-13.375l0.005-0.005zM791.852 780.635c0.032 0 0.070 0 0.108 0 5.091 0 9.704 2.049 13.058 5.368l100.52 100.502c3.499 3.389 5.67 8.131 5.67 13.379 0 10.283-8.336 18.62-18.62 18.62-5.249 0-9.99-2.172-13.375-5.665l-100.527-100.509c-3.368-3.369-5.452-8.024-5.452-13.164 0-10.282 8.334-18.618 18.616-18.62v0zM548.667 355.312c-8.976 8.024-20.17 13.75-32.55 16.153l-0.433 0.070v200.507c0 0.004 0 0.010 0 0.015 0 32.174-26.082 58.256-58.256 58.256-2.262 0-4.494-0.129-6.689-0.38l0.268 0.025v19.103c0 0.007 0 0.016 0 0.025 0 34.831-28.236 63.068-63.068 63.068-21.238 0-40.025-10.498-51.453-26.588l-0.131-0.195c-33.984 17.207-84.675-0.197-84.675-66.377v-5.366h-0.501c-1.929 0.202-4.168 0.317-6.434 0.317-16.523 0-31.616-6.125-43.132-16.228l0.074 0.064c-10.358-11.783-16.679-27.336-16.679-44.365 0-1.93 0.081-3.842 0.24-5.731l-0.017 0.247c-0.143-9.73-3.345-238.695-2.701-269.012 0.16-0.921 0.251-1.981 0.251-3.063 0-7.163-4.006-13.39-9.899-16.563l-0.1-0.049c-4.075-2.089-8.85-3.437-13.908-3.734l-0.097-0.005h-39.118v32.053c0 10.283-8.336 18.62-18.62 18.62v0h-82.421c-10.283 0-18.62-8.336-18.62-18.62s8.336-18.62 18.62-18.62h63.801v-295.592h-63.801c-10.283 0-18.62-8.336-18.62-18.62s8.336-18.62 18.62-18.62h82.421c10.283 0 18.62 8.336 18.62 18.62v0 28.511c0.657-0.092 1.425-0.15 2.205-0.161h0.013l317.789-1.789c1.27 0 126.278 3.81 128.3 152.035l0.608 185.196c-1.227 15.015-8.703 28.071-19.792 36.706l-0.116 0.087zM530.781 133.52c-1.485-109.358-82.546-114.795-91.221-115.046l-317.574 1.789c-0.825-0.006-1.632-0.064-2.422-0.172l0.097 0.011v198.075h39.082c17.594 0.292 33.509 7.252 45.375 18.454l-0.033-0.031c9.753 10.28 15.751 24.206 15.751 39.533 0 1.194-0.036 2.38-0.108 3.556l0.008-0.161c-0.644 29.674 2.665 265.328 2.701 268.19-0.16 1.258-0.252 2.713-0.252 4.189 0 7.285 2.226 14.049 6.036 19.65l-0.078-0.122c5.188 3.205 11.478 5.105 18.212 5.105 1.689 0 3.351-0.12 4.977-0.351l-0.187 0.022h0.608v-223.044c0-10.283 8.336-18.62 18.62-18.62s18.62 8.336 18.62 18.62v0 265.739c0 8.335 1.52 35.487 21.052 35.487 4.008-0.001 7.751-1.132 10.929-3.092l-0.090 0.052c1.15-0.7 2.477-1.307 3.875-1.752l0.132-0.036c0-0.197 0-0.394 0-0.572v-298.167c0-10.283 8.336-18.62 18.62-18.62s18.62 8.336 18.62 18.62v0 298.239c0.38 13.989 11.81 25.184 25.855 25.184s25.475-11.195 25.854-25.149l0.001-0.035v-35.165c0.009-1.030 0.099-2.032 0.266-3.008l-0.016 0.11c-9.254-10.24-14.917-23.879-14.917-38.841 0-0.016 0-0.031 0-0.047v0.003-222.472c0-10.283 8.336-18.62 18.62-18.62s18.62 8.336 18.62 18.62v0 222.382c0 11.627 9.425 21.052 21.052 21.052s21.052-9.425 21.052-21.052v0-207.233c-18.266-8.569-31.221-25.784-33.653-46.227l-0.027-0.278v-142.197c0-10.283 8.336-18.62 18.62-18.62s18.62 8.336 18.62 18.62v0 141.625c4.79 9.386 13.861 15.991 24.569 17.264l0.15 0.015c10.661-1.321 19.611-7.632 24.545-16.487l0.085-0.165zM1211.253 268.849c10.283 0 18.62 8.336 18.62 18.62s-8.336 18.62-18.62 18.62h-82.421c-10.283 0-18.62-8.336-18.62-18.62v0-30.836h-41.604c-0.546-0.046-1.182-0.073-1.824-0.073-12.654 0-22.913 10.258-22.913 22.913 0 0.636 0.026 1.266 0.077 1.89l-0.005-0.082v94.798c-0.032 26.296-16.43 48.753-39.554 57.736l-0.423 0.144v135.669c-0.007 34.184-27.72 61.892-61.905 61.892-3.365 0-6.668-0.269-9.888-0.785l0.354 0.047v21.249c0 0.014 0 0.030 0 0.046 0 34.169-27.7 61.869-61.869 61.869-23.946 0-44.715-13.605-54.999-33.506l-0.162-0.346c-5.774 1.984-12.426 3.13-19.346 3.13-0.015 0-0.030 0-0.045 0h0.002c-29.015-0.039-53.355-20.011-60.062-46.955l-0.090-0.427c-1.771 0.621-3.812 0.981-5.937 0.984h-8.426c-30.192-0.031-54.659-24.503-54.679-54.695v-446.52c0-105.995 87.644-134.023 134.023-134.023h309.275v-46.97c0-10.283 8.336-18.62 18.62-18.62h82.421c10.283 0 18.62 8.336 18.62 18.62s-8.336 18.62-18.62 18.62h-63.801v295.61zM1110.213 38.829h-309.257c-3.953 0-96.784 1.109-96.784 96.784v446.518c0.010 9.631 7.81 17.437 17.437 17.457h8.427c1.495 0.007 2.943 0.19 4.331 0.527l-0.127-0.026v-167.668c0-10.283 8.336-18.62 18.62-18.62s18.62 8.336 18.62 18.62v0 188.935c0 0.002 0 0.004 0 0.007 0 13.622 11.043 24.665 24.665 24.665 3.904 0 7.596-0.907 10.877-2.522l-0.145 0.064c0.495-0.243 1.122-0.503 1.764-0.729l0.132-0.040v-208.538c0-10.283 8.336-18.62 18.62-18.62s18.62 8.336 18.62 18.62v0 217.768c-0.006 0.198-0.009 0.431-0.009 0.664 0 13.622 11.043 24.665 24.665 24.665s24.665-11.043 24.665-24.665c0-0.234-0.003-0.466-0.010-0.698l0.001 0.034v-41.944c-9.389-10.754-15.114-24.918-15.114-40.418 0-0.008 0-0.016 0-0.024v0.001-131.215c0-10.283 8.336-18.62 18.62-18.62s18.62 8.336 18.62 18.62v131.215c0.37 13.334 11.268 24.001 24.656 24.001s24.286-10.668 24.656-23.967l0.001-0.034v-133.576c-26.94-7.128-46.48-31.274-46.505-59.988v-135.046c-21.836-13.457-37.644-34.904-43.43-60.172l-0.124-0.642c-0.298-1.248-0.469-2.68-0.469-4.152 0-8.804 6.116-16.179 14.331-18.109l0.126-0.025c1.232-0.296 2.647-0.465 4.102-0.465 0.023 0 0.046 0 0.069 0h-0.004c8.801 0.009 16.17 6.129 18.094 14.344l0.025 0.126c3.992 17.979 15.925 32.553 31.844 40.077l0.352 0.15c7.235 3.769 12.139 11.125 12.359 19.646l0.001 0.029v144.236c-0.006 0.198-0.009 0.431-0.009 0.664 0 13.622 11.043 24.665 24.665 24.665s24.665-11.043 24.665-24.665c0-0.234-0.003-0.466-0.010-0.698l0.001 0.034v-94.798c-0.016-0.519-0.025-1.13-0.025-1.743 0-33.231 26.939-60.17 60.17-60.17 0.619 0 1.236 0.009 1.85 0.028l-0.090-0.002h41.604z" />
<glyph unicode="&#xe91a;" glyph-name="eye" horiz-adv-x="957" d="M477.241 744.574c-199.685-0.499-374.066-108.358-468.526-268.887l-1.389-2.553-5.65-9.756 5.65-9.756c95.573-163.366 270.165-271.359 469.981-271.359s374.408 107.993 468.594 268.797l1.387 2.562 5.65 9.737-5.65 9.756c-95.866 163.126-270.307 271.005-469.981 271.458h-0.065zM907.755 463.454c-89.902-146.198-249-242.215-430.523-242.215s-340.621 96.018-429.274 240.035l-1.249 2.18c89.902 146.198 249 242.215 430.523 242.215s340.621-96.018 429.274-240.035l1.249-2.18zM517.208 624.581c-11.977 3.215-25.728 5.062-39.91 5.062-88.291 0-159.865-71.574-159.865-159.865s71.574-159.865 159.865-159.865c88.291 0 159.865 71.574 159.865 159.865 0 0.002 0 0.003 0 0.005v0c0 0.055 0 0.12 0 0.185 0 74.062-50.441 136.343-118.843 154.364l-1.113 0.249zM598.195 469.782c0-0.006 0-0.012 0-0.019 0-66.801-54.153-120.954-120.954-120.954s-120.954 54.153-120.954 120.954c0 66.801 54.153 120.954 120.954 120.954v0c66.788-0.043 120.924-54.152 121.010-120.927v-0.008zM475.923 797.969c10.741 0.011 19.445 8.715 19.456 19.455v123.139c0 10.745-8.711 19.456-19.456 19.456s-19.456-8.711-19.456-19.456v0-123.138c0.011-10.741 8.715-19.445 19.455-19.456h0.001zM92.759 711.294c3.521-3.521 8.385-5.699 13.758-5.699 10.746 0 19.457 8.711 19.457 19.457 0 5.373-2.178 10.237-5.699 13.758l-87.090 87.071c-3.521 3.521-8.385 5.699-13.758 5.699-10.746 0-19.457-8.711-19.457-19.457 0-5.373 2.178-10.237 5.699-13.758v0zM850.631 705.662c0.026 0 0.056 0 0.087 0 5.334 0 10.164 2.159 13.663 5.651v0l87.071 87.071c3.521 3.521 5.699 8.385 5.699 13.758 0 10.746-8.711 19.457-19.457 19.457-5.373 0-10.237-2.178-13.758-5.699v0l-87.071-87.071c-3.516-3.52-5.69-8.381-5.69-13.749 0-10.739 8.701-19.446 19.438-19.456h0.001zM475.923 98.050c-10.741-0.011-19.445-8.715-19.456-19.455v-123.139c0-10.745 8.711-19.456 19.456-19.456s19.456 8.711 19.456 19.456v0 123.082c0 0.011 0 0.024 0 0.038 0 10.749-8.708 19.464-19.455 19.475h-0.001zM92.759 184.688l-87.071-87.071c-3.521-3.521-5.699-8.385-5.699-13.758 0-10.746 8.711-19.457 19.457-19.457 5.373 0 10.237 2.178 13.758 5.699v0l87.071 87.071c3.521 3.521 5.699 8.385 5.699 13.758 0 10.746-8.711 19.457-19.457 19.457-5.373 0-10.237-2.178-13.758-5.699v0zM864.38 184.706c-3.521 3.521-8.385 5.699-13.758 5.699-10.746 0-19.457-8.711-19.457-19.457 0-5.373 2.178-10.237 5.699-13.758l87.071-87.071c3.521-3.521 8.385-5.699 13.758-5.699 10.746 0 19.457 8.711 19.457 19.457 0 5.373-2.178 10.237-5.699 13.758v0z" />
<glyph unicode="&#xe91b;" glyph-name="company" horiz-adv-x="972" d="M485.848 175.486c-8.378 0-15.17-6.792-15.17-15.17v0-209.179c0-8.378 6.792-15.17 15.17-15.17s15.17 6.792 15.17 15.17v0 209.213c-0.019 8.364-6.804 15.136-15.17 15.136 0 0 0 0 0 0v0zM681.964 110.102c-8.378 0-15.17-6.792-15.17-15.17v0-143.83c0-8.378 6.792-15.17 15.17-15.17s15.17 6.792 15.17 15.17v0 143.83c0 8.378-6.792 15.17-15.17 15.17v0zM786.52 149.326c-8.378 0-15.17-6.792-15.17-15.17v0-183.053c0-8.378 6.792-15.17 15.17-15.17s15.17 6.792 15.17 15.17v0 183.053c0 8.378-6.792 15.17-15.17 15.17v0zM289.699 110.102c-8.378 0-15.17-6.792-15.17-15.17v0-143.83c0-8.378 6.792-15.17 15.17-15.17s15.17 6.792 15.17 15.17v0 143.83c0 8.378-6.792 15.17-15.17 15.17v0zM185.109 149.326c-8.378 0-15.17-6.792-15.17-15.17v0-183.053c0-8.378 6.792-15.17 15.17-15.17s15.17 6.792 15.17 15.17v0 183.053c0 8.378-6.792 15.17-15.17 15.17v0zM368.162 371.602h-13.080c-8.174-0.261-14.7-6.95-14.7-15.163 0-7.486 5.422-13.705 12.553-14.945l0.091-0.013v-390.344c0-8.378 6.792-15.17 15.17-15.17s15.17 6.792 15.17 15.17v0 405.346c-0.029 8.356-6.81 15.12-15.17 15.12-0.012 0-0.024 0-0.036 0h0.002zM616.598 371.602h-13.080c-8.378 0-15.17-6.792-15.17-15.17v0-405.295c0-8.378 6.792-15.17 15.17-15.17s15.17 6.792 15.17 15.17v0 390.344c7.222 1.253 12.644 7.472 12.644 14.958 0 8.213-6.527 14.902-14.676 15.162l-0.024 0.001zM538.135 567.734h-104.606c-90.616 0-158.966-73.963-158.966-172.029v-248.436c0-8.378 6.792-15.17 15.17-15.17v0h39.223c8.378 0 15.17 6.792 15.17 15.17s-6.792 15.17-15.17 15.17h-24.104v233.249c0 82.155 54.124 141.773 128.693 141.773h104.606c74.57 0 128.693-59.619 128.693-141.773v-233.3h-24.104c-8.378 0-15.17-6.792-15.17-15.17s6.792-15.17 15.17-15.17h39.223c8.378 0 15.17 6.792 15.17 15.17v0 248.47c0 98.016-68.384 172.046-159 172.046zM827.496 502.351h-81.851c-0.63 0.014-1.373 0.022-2.118 0.022-11.918 0-23.36-2.039-33.995-5.787l0.716 0.22c-6.274-1.955-10.75-7.711-10.75-14.512 0-1.551 0.233-3.048 0.665-4.457l-0.028 0.107c1.955-6.274 7.711-10.75 14.512-10.75 1.551 0 3.048 0.233 4.457 0.665l-0.107-0.028c7.373 2.717 15.889 4.288 24.771 4.288 0.654 0 1.307-0.009 1.957-0.025l-0.096 0.002h81.851c0.298 0.003 0.649 0.004 1.002 0.004 61.928 0 112.214-49.846 112.925-111.606l0.001-0.067v-237.261h-11.024c-8.378 0-15.17-6.792-15.17-15.17s6.792-15.17 15.17-15.17h26.143c8.378 0 15.17 6.792 15.17 15.17v0 252.431c-0.761 78.547-64.612 141.928-143.267 141.928-0.328 0-0.656-0.001-0.984-0.003h0.050zM904.257 332.378h-13.080c-8.378 0-15.17-6.792-15.17-15.17v0-366.106c0-8.378 6.792-15.17 15.17-15.17s15.17 6.792 15.17 15.17v0 351.155c7.222 1.253 12.644 7.472 12.644 14.958 0 8.213-6.527 14.902-14.676 15.162l-0.024 0.001zM257.302 497.632c-8.162 3.047-17.593 4.811-27.435 4.811-1.348 0-2.688-0.033-4.019-0.098l0.188 0.007h-81.851c-0.272 0.002-0.594 0.003-0.917 0.003-78.655 0-142.506-63.381-143.266-141.856l-0.001-0.072v-252.38c0-8.378 6.792-15.17 15.17-15.17v0h26.143c8.378 0 15.17 6.792 15.17 15.17s-6.792 15.17-15.17 15.17h-11.108v237.21c0.712 61.827 50.998 111.673 112.926 111.673 0.352 0 0.704-0.002 1.055-0.005h81.797c1.102 0.082 2.386 0.129 3.682 0.129 6.786 0 13.272-1.285 19.229-3.624l-0.357 0.124c1.297-0.401 2.789-0.632 4.334-0.632 6.8 0 12.554 4.474 14.482 10.638l0.029 0.107c0.404 1.302 0.637 2.798 0.637 4.35 0 6.801-4.476 12.557-10.643 14.483l-0.107 0.029zM80.503 332.378h-13.080c-8.174-0.261-14.7-6.95-14.7-15.163 0-7.486 5.422-13.705 12.553-14.945l0.091-0.013v-351.121c0-8.378 6.792-15.17 15.17-15.17s15.17 6.792 15.17 15.17v0 366.106c-0.019 8.364-6.804 15.136-15.17 15.136-0.012 0-0.024 0-0.036 0h0.002zM485.848 803.090c-55.978 0-93.583-42.864-93.583-106.663s37.605-106.663 93.583-106.663 93.583 42.864 93.583 106.663-37.622 106.663-93.583 106.663zM549.175 696.428c0-35.245-16.586-76.39-63.327-76.39s-63.327 41.162-63.327 76.39 16.586 76.39 63.327 76.39 63.31-41.145 63.31-76.39zM655.821 959.983c-40.336 0-67.423-32.346-67.423-80.503s27.104-80.503 67.423-80.503 67.423 32.346 67.423 80.503-27.104 80.503-67.423 80.503zM692.988 879.48c0-24.289-9.759-50.247-37.167-50.247s-37.167 25.958-37.167 50.247 9.759 50.247 37.167 50.247 37.184-25.958 37.184-50.247zM315.842 960c-40.336 0-67.423-32.346-67.423-80.503s27.104-80.503 67.423-80.503 67.423 32.346 67.423 80.503-27.087 80.503-67.423 80.503zM353.009 879.497c0-24.289-9.759-50.247-37.167-50.247s-37.167 25.958-37.167 50.247 9.759 50.247 37.167 50.247 37.184-25.89 37.184-50.264zM787.161 705.395l-2.377 5.057c-6.949 17.161-15.084 31.94-24.71 45.592l0.472-0.706c-19.559 21.292-47.507 34.612-78.567 34.689h-52.267c-0.020 0-0.044 0-0.067 0-11.233 0-22.059-1.744-32.222-4.977l0.752 0.206c-5.725-2.256-9.703-7.739-9.703-14.151 0-8.378 6.792-15.17 15.17-15.17 1.248 0 2.46 0.151 3.621 0.435l-0.104-0.022c6.7 2.139 14.408 3.371 22.403 3.371 0.053 0 0.106 0 0.158 0h52.245c22.237-0.071 42.233-9.608 56.18-24.79l0.050-0.055c6.769-10.589 13.185-22.836 18.547-35.633l0.601-1.618 2.478-5.293c2.502-5.134 7.68-8.609 13.669-8.613h0.001c8.349 0.038 15.103 6.815 15.103 15.17 0 2.351-0.535 4.577-1.49 6.564l0.039-0.091zM373.59 785.24c-9.432 3.037-20.284 4.787-31.544 4.787-0.015 0-0.030 0-0.045 0h-52.25c-31.295-0.080-59.419-13.592-78.923-35.072l-0.079-0.088c-10.026-13.157-19.531-28-27.803-43.598l-0.852-1.761c-0.678-1.659-1.072-3.584-1.072-5.601 0-8.378 6.792-15.17 15.17-15.17 5.635 0 10.553 3.073 13.169 7.634l0.039 0.074c7.833 14.7 15.701 27.157 24.362 38.996l-0.63-0.903c14.004 15.488 34.143 25.202 56.553 25.283h52.268c0.066 0 0.145 0 0.224 0 7.981 0 15.674-1.233 22.9-3.518l-0.537 0.147c1.070-0.269 2.297-0.424 3.561-0.424 8.378 0 15.17 6.792 15.17 15.17 0 6.422-3.991 11.912-9.628 14.126l-0.103 0.036zM185.109 711.547c-48.157 0-80.503-37.605-80.503-93.583s32.346-93.583 80.503-93.583 80.503 37.605 80.503 93.583-32.346 93.583-80.503 93.583zM235.356 617.964c0-30.61-13.198-63.327-50.247-63.327s-50.247 32.717-50.247 63.327 13.198 63.327 50.247 63.327 50.247-32.734 50.247-63.327zM791.122 715.508c-48.881 0-81.716-38.178-81.716-94.982s32.835-94.982 81.716-94.982 81.716 38.178 81.716 94.982-32.835 94.982-81.716 94.982zM842.127 620.526c0-31.065-13.4-64.271-51.005-64.271s-51.005 33.206-51.005 64.271 13.4 64.271 51.005 64.271 50.955-33.206 50.955-64.22z" />
<glyph unicode="&#xe91c;" glyph-name="candidate" horiz-adv-x="931" d="M337.904 608.364c31.997-34.141 77.371-55.412 127.713-55.412s95.716 21.271 127.624 55.316l0.089 0.096c30.653 37.597 49.222 86.101 49.222 138.942 0 3.228-0.069 6.44-0.206 9.634l0.016-0.456c0.122 2.739 0.191 5.95 0.191 9.178 0 52.841-18.57 101.346-49.539 139.343l0.317-0.401c-31.997 34.141-77.371 55.412-127.713 55.412s-95.716-21.271-127.624-55.316l-0.089-0.096c-30.653-37.597-49.222-86.101-49.222-138.942 0-3.228 0.069-6.44 0.206-9.634l-0.016 0.456c-0.122-2.739-0.191-5.95-0.191-9.178 0-52.841 18.57-101.346 49.539-139.343l-0.317 0.401zM352.764 870.656c25.751 34.858 66.691 57.214 112.853 57.214s87.102-22.357 112.583-56.833l0.269-0.381c19.953-30.973 31.811-68.798 31.811-109.392 0-1.68-0.020-3.356-0.061-5.027l0.005 0.248c0.036-1.423 0.056-3.099 0.056-4.779 0-40.595-11.857-78.42-32.298-110.201l0.487 0.809c-25.751-34.858-66.691-57.214-112.853-57.214s-87.102 22.357-112.583 56.833l-0.269 0.381c-19.953 30.97-31.811 68.794-31.811 109.387 0 1.682 0.020 3.36 0.061 5.033l-0.005-0.248c-0.035 1.414-0.055 3.079-0.055 4.749 0 40.607 11.865 78.444 32.317 110.231l-0.487-0.808zM922.756 82.55l-83.021 257.037c-38.702 108.896-104.063 164.109-194.293 164.109h-19.129c-5.771-0.004-10.831-3.041-13.673-7.604l-0.040-0.068-130.884-211.63v187.084h10.712c8.897 0 16.109 7.212 16.109 16.109s-7.212 16.109-16.109 16.109h-53.562c-8.897 0-16.109-7.212-16.109-16.109s7.212-16.109 16.109-16.109h10.712v-189.279l-130.884 213.885c-2.89 4.599-7.936 7.612-13.685 7.612-0.017 0-0.033 0-0.050 0h-19.126c-1.104 0.025-2.405 0.039-3.71 0.039-42.83 0-82.070-15.37-112.505-40.896l0.272 0.222c-35.818-33.014-62.965-74.906-77.983-122.201l-0.548-1.998-82.82-256.513c-5.673-13.874-8.966-29.974-8.966-46.844 0-24.479 6.934-47.339 18.944-66.723l-0.313 0.542c15.666-20.433 40.086-33.477 67.552-33.477 1.787 0 3.561 0.055 5.32 0.164l-0.241-0.012h749.747c1.482-0.092 3.214-0.145 4.959-0.145 27.454 0 51.865 13.032 67.383 33.248l0.149 0.202c11.724 18.876 18.674 41.78 18.674 66.307 0 16.904-3.301 33.037-9.294 47.789l0.306-0.851zM887.236-11.686c-10.021-12.43-25.247-20.315-42.315-20.315-1.549 0-3.083 0.065-4.599 0.192l0.198-0.013h-359.228v76.296c0.023 16.516 13.406 29.899 29.92 29.922h221.801c8.872 0.033 16.051 7.232 16.051 16.109 0 1.755-0.281 3.445-0.8 5.027l0.032-0.114-40.715 126.072c-1.369 4.133-4.246 7.449-7.964 9.361l-0.090 0.042c-2.087 1.089-4.557 1.728-7.178 1.728-1.753 0-3.44-0.286-5.015-0.814l0.111 0.032c-6.538-2.151-11.174-8.201-11.174-15.334 0-1.751 0.279-3.438 0.796-5.016l-0.032 0.114 33.929-105.050h-199.75c-14.937-0.049-28.623-5.362-39.311-14.18l0.106 0.085-6.786-5.537-6.786 5.537c-10.582 8.733-24.268 14.046-39.194 14.095h-193.317l29.862 104.486c0.635 1.663 1.003 3.586 1.003 5.595 0 8.897-7.212 16.109-16.109 16.109-7.755 0-14.231-5.48-15.764-12.78l-0.018-0.105-35.701-124.944c-0.383-1.309-0.604-2.814-0.604-4.37 0-8.875 7.178-16.074 16.045-16.109h214.593c16.516-0.023 29.899-13.406 29.922-29.92v-76.439h-358.422c-1.318-0.114-2.852-0.179-4.401-0.179-17.068 0-32.293 7.885-42.234 20.211l-0.081 0.104c-7.731 13.619-12.288 29.917-12.288 47.278 0 13.335 2.688 26.043 7.553 37.61l-0.238-0.639 82.679 256.211c13.038 42.203 35.58 78.24 65.219 107.003l0.062 0.060c25.080 22.228 58.271 35.803 94.633 35.803 1.475 0 2.945-0.022 4.409-0.067l-0.214 0.005h10.068l131.952-215.456c7.361-13.515 21.461-22.532 37.666-22.532 0.017 0 0.034 0 0.051 0h-0.003c0.142-0.002 0.309-0.003 0.476-0.003 15.548 0 29.123 8.448 36.386 21.004l0.108 0.202 0.302 0.544 132.475 216.241h10.068c1.192 0.036 2.595 0.056 4.002 0.056 36.368 0 69.567-13.564 94.816-35.909l-0.151 0.131c29.611-28.622 52.078-64.448 64.589-104.662l0.471-1.757v-0.302l83.041-256.252c4.652-10.977 7.355-23.742 7.355-37.139 0-17.377-4.549-33.692-12.521-47.819l0.253 0.487z" />
<glyph unicode="&#xe91d;" glyph-name="search" horiz-adv-x="925" d="M901.722 69.577l-154.506 184.937c-17.005 20.765-42.643 33.913-71.352 33.913-8.929 0-17.561-1.272-25.725-3.644l0.65 0.162-0.663-0.235-56.881 65.398 0.728 0.685c68.449 64.496 111.070 155.751 111.070 256.961 0 194.832-157.943 352.775-352.775 352.775s-352.775-157.943-352.775-352.775c0-194.832 157.943-352.775 352.775-352.775 79.166 0 152.242 26.077 211.106 70.11l-0.922-0.66 0.77 0.578 55.853-64.199-0.449-0.663c-6.643-9.808-11.017-21.654-12.115-34.438l-0.019-0.273c-0.143-1.965-0.225-4.257-0.225-6.568 0-23.994 8.802-45.932 23.354-62.76l-0.103 0.122 154.549-184.98c16.972-20.862 42.343-34.326 70.882-35.199l0.144-0.003c0.273-0.004 0.595-0.006 0.918-0.006 16.836 0 32.272 5.999 44.285 15.976l-0.114-0.092c15.303 13.137 24.937 32.504 24.937 54.12 0 0.926-0.018 1.847-0.053 2.764l0.004-0.132c-0.587 23.367-9.322 44.587-23.455 61.033l0.108-0.129zM352.176 920.838c0.095 0 0.207 0 0.319 0 173.062 0 313.357-140.295 313.357-313.357 0-96.413-43.542-182.656-112.034-240.138l-0.484-0.395c-53.979-45.329-124.222-72.866-200.897-72.866-173.074 0-313.378 140.304-313.378 313.378 0 172.982 140.156 313.23 313.104 313.378h0.014zM875.207-17.969h-0.128c-5.253-4.23-12.006-6.79-19.357-6.79-0.222 0-0.443 0.002-0.663 0.007l0.033-0.001c-16.66 0.814-31.29 8.862-40.913 21.047l-0.089 0.117-154.549 184.98c-8.786 9.931-14.15 23.067-14.15 37.455 0 1.127 0.033 2.247 0.098 3.358l-0.007-0.153c0.517 8.788 4.535 16.546 10.666 21.97l0.034 0.029c5.191 4.203 11.875 6.748 19.154 6.748 0.225 0 0.45-0.002 0.674-0.007l-0.033 0.001c16.695-0.831 31.352-8.901 40.998-21.111l0.089-0.117 154.506-184.937c8.458-9.675 13.769-22.291 14.228-36.135l0.002-0.095c0.044-0.635 0.069-1.376 0.069-2.123 0-9.583-4.098-18.209-10.638-24.221l-0.024-0.021zM155.319 441.741c47.987-57.142 119.464-93.21 199.365-93.21 143.492 0 259.815 116.323 259.815 259.815s-116.323 259.815-259.815 259.815c-63.609 0-121.879-22.858-167.043-60.809l0.398 0.326c-57.222-47.908-93.354-119.372-93.354-199.275 0-63.638 22.919-121.923 60.954-167.051l-0.32 0.39zM354.53 829.076c0.045 0 0.098 0 0.152 0 121.863 0 220.653-98.79 220.653-220.653s-98.79-220.653-220.653-220.653c-121.863 0-220.653 98.79-220.653 220.653 0 67.846 30.621 128.54 78.796 169.017l0.338 0.277c37.955 31.922 87.368 51.317 141.312 51.317 0.019 0 0.039 0 0.058 0h-0.003z" />
<glyph unicode="&#xe942;" glyph-name="accessibility" d="M763.845 536.517c-36.91 22.221-76.058 40.492-116.796 54.509-46.494 16.165-95.318 24.612-144.541 25.010-29.374-0.1-58.66-3.221-87.394-9.315l-55.237 95.784-38.893-22.391 49.231-85.109-1.161-0.355c-4.176-1.32-7.799-2.501-11.126-3.624-4.629-1.536-9.177-3.21-13.115-4.627-12.347-4.51-24.93-9.649-37.416-15.262-8.566-3.859-17.487-8.113-26.506-12.702-11.894-6.025-23.709-12.484-35.131-19.18l-0.945-0.67c-1.182-0.67-2.403-1.377-3.544-2.087-7.286-4.333-14.12-8.625-20.303-12.564-11.441-7.385-22.626-15.006-33.103-22.627-7.975-5.809-15.892-11.834-23.512-17.88-19.554-15.537-30.386-25.975-30.838-26.407l-13.785-13.214 13.785-13.273 0.097-0.216c6.952-6.558 16.148-14.553 25.895-22.429 24.626-19.855 50.553-38.038 77.608-54.43l8.211-4.982-60.298 104.488c6.026 4.844 12.524 9.846 19.377 14.927l81.663-141.352 0.67-0.334c19.94-9.88 40.419-18.63 61.343-26.21l6.34-2.285-112.994 195.683c6.419 4.056 12.898 8.133 19.279 11.934l1.379 0.827 126.444-218.9 0.986-0.256c17.281-4.637 34.817-8.273 52.519-10.889l5.022-0.728-145.585 252.179c7.423 3.683 14.828 7.168 22.035 10.379l153.226-265.63h1.32c15.435-0.971 30.915-1.017 46.356-0.138 10.083 0.552 20.343 1.477 30.523 2.797l51.988-89.876 38.774 22.37-43.913 76.072c14.986 3.544 30.208 7.916 45.292 13.036 40.738 14.017 79.886 32.287 116.794 54.509 38.595 22.648 74.699 49.293 107.718 79.498l13.785 13.254-13.785 13.193c-33.038 30.188-69.148 56.832-107.737 79.498zM502.586 326.38c7.266 0 14.516 0.66 21.662 1.97l10.614-18.531h0.059c-9.118-0.827-18.255-1.299-27.175-1.358l-10.436 18.039c1.791-0.119 3.544-0.119 5.276-0.119zM579.939 355.441c48.817 42.792 53.702 117.056 10.91 165.874l-2.935 3.347-1.28-4.254c-1.654-5.572-4.889-10.543-9.314-14.311-12.62-10.745-31.561-9.225-42.307 3.394s-9.226 31.561 3.394 42.307l3.387 2.895-4.273 1.319c-29.4 9.148-61.215 6.405-88.615-7.641l-12.584 21.78c3.25 1.713 6.637 3.328 10.083 4.805 37.108 5.752 74.881 5.752 111.99 0v-0.020c26.495-11.315 48.94-30.392 64.378-54.716 42.194-66.482 22.505-154.58-43.977-196.774l-12.543 21.662c4.808 3.106 9.382 6.56 13.686 10.333zM621.459 331.595c61.909 65.59 58.924 168.948-6.665 230.857 45.456-13.449 89.012-32.641 129.614-57.108 30.474-18.167 59.447-38.739 86.647-61.518v-0.020c-27.195-22.826-56.17-43.444-86.647-61.656-40.572-24.445-84.087-43.635-129.496-57.108 2.244 2.123 4.427 4.308 6.547 6.554zM413.362 520.291c-5.873-6.841-10.941-14.334-15.105-22.332l-32.689 56.655c7.876 2.757 15.754 5.297 23.63 7.561l24.124-41.905 0.040 0.020zM512 960c-282.769 0-512-229.231-512-512s229.231-512 512-512 512 229.231 512 512-229.231 512-512 512zM328.054 12.505c-174.751 73.97-288.338 245.261-288.472 435.023-0.185 261.094 211.324 472.903 472.418 473.088 63.189 0.127 125.752-12.498 183.946-37.12 238.822-101.958 350.701-377.46 250.582-617.059-100.665-240.909-377.565-354.597-618.474-253.932z" />
</font>
</defs>
</svg>
